Language:
switch to room list switch to menu My folders
Go to page: First ... 305 306 307 308 [309] 310 311 312 313 ... Last
[#] Fri Feb 18 2022 05:20:31 MST from rss <>

Subject: Site recommendations for Taiwanese Netflix

[Reply] [ReplyQuoted] [Headers] [Print]

having a lot of trouble finding a site that's hosting this obscure horror film and I was looking to see if any of you have recommendations for it

submitted by /u/__Reddit_username
[link] [comments]



[#] Fri Feb 18 2022 05:33:35 MST from rss <>

Subject: wordle game download

[Reply] [ReplyQuoted] [Headers] [Print]

i want a download for the original wordle game from before it was purchased

preferably in a zip or something similar to a zip.

submitted by /u/reditposter
[link] [comments]



[#] Fri Feb 18 2022 05:36:40 MST from rss <>

Subject: I downloaded a keylogger on one of Masquerade's repacks

[Reply] [ReplyQuoted] [Headers] [Print]

Windows gave me a warning about it that I didn't notice, then a day later there's a etransfer going out of my bank for $2500. Thought masquerade.site was safe, guess not.

submitted by /u/https_hater
[link] [comments]



[#] Fri Feb 18 2022 05:53:05 MST from rss <>

Subject: Another example of “this is why I pirate” 🏴‍☠️

[Reply] [ReplyQuoted] [Headers] [Print]

https://www.giantfreakinrobot.com/ent/netflix-best-show.html?fbclid=IwAR1NRg6ZrlbhpYBNwPeUZheswL5TQpYMtlgzWCpKJCbLqAx8CxiI0qR8sRc

They can take it away any time they want. They can stop offering it on their service & there would be no other place to find it. And there is nothing you can do about it.

submitted by /u/PikolaManchee
[link] [comments]



[#] Fri Feb 18 2022 05:49:09 MST from rss <>

Subject: Time to set the sails

[Reply] [ReplyQuoted] [Headers] [Print]

[#] Fri Feb 18 2022 06:07:48 MST from rss <>

Subject: Where to download history books?

[Reply] [ReplyQuoted] [Headers] [Print]

Specifically I am looking for collection books similar to "The P38 Pistol by Alexander Krutzek" for example.

submitted by /u/kuddlesworth9419
[link] [comments]



[#] Fri Feb 18 2022 06:14:56 MST from rss <>

Subject: Actual conversation I had last year

[Reply] [ReplyQuoted] [Headers] [Print]

[#] Fri Feb 18 2022 06:33:05 MST from rss <>

Subject: Pirating Softwares

[Reply] [ReplyQuoted] [Headers] [Print]

I am a beginner in pirating and am looking to get started where do I begin?

submitted by /u/Prototrobe
[link] [comments]



[#] Fri Feb 18 2022 08:28:37 MST from rss <>

Subject: MeGusta x265 settings

[Reply] [ReplyQuoted] [Headers] [Print]

Hello, lately I've been using eztv.re to get MeGusta x265 HEVC downloads, but they are hit or miss for some shows. I guess they appear on eztv after some bot converts their releases from private trackers.

Anyway, I was really intrigued for their size/quality ratio. I got one of their files, looked in mediaInfo, and tried to replicate the encoding settings in HandBrake video converter. I had to guess the "preferred quality" value and ended up with 33. This way I got almost identical output of mediaInfo and file size, but the video quality is still evidently better in MeGusta release. Can anyone help me to figured out - do I need to tweak something in Handbrake or switch to another converter?

MeGusta MediaInfo -

Video ID : 1 Format : HEVC Format/Info : High Efficiency Video Coding Format profile : Main 10@L4@Main Codec ID : V_MPEGH/ISO/HEVC Duration : 24 min 44 s Bit rate : 1 169 kb/s Width : 1 920 pixels Height : 1 080 pixels Display aspect ratio : 16:9 Frame rate mode : Constant Frame rate : 23.976 (24000/1001) FPS Color space : YUV Chroma subsampling : 4:2:0 Bit depth : 10 bits Bits/(Pixel*Frame) : 0.024 Stream size : 207 MiB (63%) Writing library : x265 3.5+9-bf91444e0:[Windows][GCC 10.2.0][64 bit] 10bit Encoding settings : cpuid=1111039 / frame-threads=3 / numa-pools=12 / wpp / no-pmode / no-pme / no-psnr / no-ssim / log-level=2 / input-csp=1 / input-res=1920x1080 / interlace=0 / total-frames=0 / level-idc=0 / high-tier=1 / uhd-bd=0 / ref=1 / no-allow-non-conformance / no-repeat-headers / annexb / no-aud / no-eob / no-eos / no-hrd / info / hash=0 / no-temporal-layers / open-gop / min-keyint=23 / keyint=250 / gop-lookahead=0 / bframes=3 / b-adapt=0 / b-pyramid / bframe-bias=0 / rc-lookahead=5 / lookahead-slices=6 / scenecut=0 / hist-scenecut=0 / radl=0 / no-splice / no-intra-refresh / ctu=32 / min-cu-size=16 / no-rect / no-amp / max-tu-size=32 / tu-inter-depth=1 / tu-intra-depth=1 / limit-tu=0 / rdoq-level=0 / dynamic-rd=0.00 / no-ssim-rd / no-signhide / no-tskip / nr-intra=0 / nr-inter=0 / no-constrained-intra / strong-intra-smoothing / max-merge=2 / limit-refs=0 / no-limit-modes / me=0 / subme=0 / merange=57 / temporal-mvp / no-frame-dup / no-hme / no-weightp / no-weightb / no-analyze-src-pics / deblock=0:0 / no-sao / no-sao-non-deblock / rd=2 / selective-sao=0 / early-skip / rskip / fast-intra / no-tskip-fast / no-cu-lossless / no-b-intra / no-splitrd-skip / rdpenalty=0 / psy-rd=2.00 / psy-rdoq=0.00 / no-rd-refine / no-lossless / cbqpoffs=0 / crqpoffs=0 / rc=crf / crf=23.0 / qcomp=0.60 / qpstep=4 / stats-write=0 / stats-read=0 / ipratio=1.40 / pbratio=1.30 / aq-mode=1 / aq-strength=0.00 / cutree / zone-count=0 / no-strict-cbr / qg-size=32 / no-rc-grain / qpmax=69 / qpmin=0 / no-const-vbv / sar=1 / overscan=0 / videoformat=5 / range=0 / colorprim=2 / transfer=2 / colormatrix=2 / chromaloc=0 / display-window=0 / cll=0,0 / min-luma=0 / max-luma=1023 / log2-max-poc-lsb=8 / vui-timing-info / vui-hrd-info / slices=1 / no-opt-qp-pps / no-opt-ref-list-length-pps / no-multi-pass-opt-rps / scenecut-bias=0.05 / hist-threshold=0.03 / no-opt-cu-delta-qp / no-aq-motion / no-hdr10 / no-hdr10-opt / no-dhdr10-opt / no-idr-recovery-sei / analysis-reuse-level=0 / analysis-save-reuse-level=0 / analysis-load-reuse-level=0 / scale-factor=0 / refine-intra=0 / refine-inter=0 / refine-mv=1 / refine-ctu-distortion=0 / no-limit-sao / ctu-info=0 / no-lowpass-dct / refine-analysis-type=0 / copy-pic=1 / max-ausize-factor=1.0 / no-dynamic-refine / no-single-sei / no-hevc-aq / no-svt / no-field / qp-adaptation-range=1.00 / scenecut-aware-qp=0conformance-window-offsets / right=0 / bottom=0 / decoder-max-rate=0 / no-vbv-live-multi-pass 

My mediaInfo -

Video ID : 1 Format : HEVC Format/Info : High Efficiency Video Coding Format profile : Main 10@L4@Main Codec ID : V_MPEGH/ISO/HEVC Duration : 24 min 42 s Bit rate : 1 168 kb/s Width : 1 920 pixels Height : 1 080 pixels Display aspect ratio : 16:9 Frame rate mode : Constant Frame rate : 23.976 (24000/1001) FPS Color space : YUV Chroma subsampling : 4:2:0 Bit depth : 10 bits Bits/(Pixel*Frame) : 0.023 Stream size : 206 MiB (63%) Default : Yes Forced : No Color range : Limited Color primaries : BT.709 Transfer characteristics : BT.709 Matrix coefficients : BT.709 

There are many encoding settings in MeGusta mediaInfo output, maybe there is a way to feed them to some encoder?

submitted by /u/gritsany
[link] [comments]



[#] Fri Feb 18 2022 09:41:02 MST from rss <>

Subject: Sites using 1Fichier hoster for 4K movies?

[Reply] [ReplyQuoted] [Headers] [Print]

Can someone suggest some DDL sites offering 4K links of 1Fichier hoster?

Looking to download remux files through 1Fichier but having a hard time searching sites. Everyone uses RG or Nitro as hosters.

submitted by /u/justanotherzee
[link] [comments]



[#] Fri Feb 18 2022 09:52:28 MST from rss <>

Subject: Looking for windows feature remover

[Reply] [ReplyQuoted] [Headers] [Print]

I’m looking for a software to modify windows installs. strip,disable, or remove certain features that come with a stock windows installation… I’ve been looking at one in particular called,”Ntlite”. I’ve looked in all of the software piracy resources linked and all either contain malware or are to old for me to use… I need a software that supports windows version 20h2.I’ve tried cracking that software in particular with no success but I’m open to using other softwares. Assistance would be greatly appreciated

submitted by /u/Epwy
[link] [comments]



[#] Fri Feb 18 2022 10:06:08 MST from rss <>

Subject: A regularly updated VPN providers list, which accepts Bitcoins and another cryptocurrency

[Reply] [ReplyQuoted] [Headers] [Print]

Hello,

Just finished upgrading my own VPN providers list, which accepted Bitcoin and another crypto. Personally checked each provider. www.Bitcoin-vpn.com

My main goal is to provide a good QUALITY list without nonsense, as other review websites do - the best provider which pays the most for affiliates. So I made a simple list, A-Z without a TOP provider. Just marked 2 providers as green, as I personally liked them the most and many communities agreed with my opinion.

If you know more providers, please add in comments, I will take care to add in a few hours. As I am going to upgrade my website from time to time, please let me know what is important to you, as I would like to find more criteria to provide more information for visitors.

submitted by /u/Andriaus
[link] [comments]



[#] Fri Feb 18 2022 10:29:59 MST from rss <>

Subject: any suggestions for a free or open source AI remaster program?

[Reply] [ReplyQuoted] [Headers] [Print]

obviously i have no clue what i'm doing, not sure what to use to re-master low resolution videos any help is welcome

submitted by /u/saike1
[link] [comments]



[#] Fri Feb 18 2022 10:40:50 MST from rss <>

Subject: Any ways to watch archived and older f1 races?

[Reply] [ReplyQuoted] [Headers] [Print]

My priority is watching the archived ones, such as 2021, 2020, 2019 and etc. But streaming it would be a huge plus, too. Is there any add-on for plex or Kodi or stremio or any other app or website that has these archives for streaming?

submitted by /u/MrBerryss
[link] [comments]



[#] Fri Feb 18 2022 11:53:57 MST from rss <>

Subject: ipfilter, yay or nay?

[Reply] [ReplyQuoted] [Headers] [Print]

I’m using wael and DavidMoore blocklists but I observe trackers like p4p.arenabg.com and exodus.desync.com (and a few more) end up being filtered.

What blocklists do you use? If not, why don’t you use them?

submitted by /u/ffiresnake
[link] [comments]



[#] Fri Feb 18 2022 11:46:18 MST from rss <>

Subject: Internet Download Manager

[Reply] [ReplyQuoted] [Headers] [Print]

IDM Crack 6.40 Build 7 Patch + Serial Key Download [Latest]

IDM Crack Internet Download Manager Full 6.40 Build 7 IDM Crack ile yama ücretsiz indirme, indirme hızını 5 kata kadar artırabilen güçlü ve hızlı bir uygulamadır. Artık ihtiyacınız olan tüm dosyaları IDM Crack ücretsiz İndirme uygulamasını kullanarak indirebilirsiniz. IDM’yi IDM’nin resmi web sitesinden ücretsiz olarak indirebilirsiniz. …

submitted by /u/crackindir
[link] [comments]



[#] Fri Feb 18 2022 11:45:50 MST from rss <>

Subject: When I try to convert an epub file to pdf...

[Reply] [ReplyQuoted] [Headers] [Print]

When I try to convert an epub file to pdf the page became so tiny and I don't know what to do.... Calibre doesn't work.. I post a picture to make you understand how the page should be/how it actually is

https://preview.redd.it/506tij5axki81.jpg?width=919&format=pjpg&auto=webp&s=ad169683285335432b73535e496962731bcea228

submitted by /u/francesco1799
[link] [comments]



[#] Fri Feb 18 2022 11:43:17 MST from rss <>

Subject: Avast Premier 2019 Cracked

[Reply] [ReplyQuoted] [Headers] [Print]

Avast Premier 2019 Cracked

Avast Premier 2019 + definitive serial software provides complete virus protection for your computer. The antivirus engine is complemented by antispyware, firewall and antispam modules. And they protect you from phishing schemes, identity theft and web viruses spread across the Internet.

submitted by /u/crackindir
[link] [comments]



[#] Fri Feb 18 2022 11:59:12 MST from rss <>

Subject: We need open source.

[Reply] [ReplyQuoted] [Headers] [Print]

[#] Fri Feb 18 2022 11:48:01 MST from rss <>

Subject: Website to request rare courses

[Reply] [ReplyQuoted] [Headers] [Print]

Does anyone have an idea of a site which allows requests for obscure courses?

I've checked through all the courses sites listed in the megathread and also the well known torrents, but I've had no luck finding a particular course I need.

The course is specifically hosted on elopage.com, so if anyone also knows a site which has courses from there, it would be appreciated.

Thanks.

submitted by /u/Interesting-Try-8925
[link] [comments]



Go to page: First ... 305 306 307 308 [309] 310 311 312 313 ... Last